<?xml version="1.0" standalone="no"?>
<!DOCTYPE svg PUBLIC "-//W3C//DTD SVG 1.1//EN" "http://www.w3.org/Graphics/SVG/1.1/DTD/svg11.dtd">
<svg xmlns="http://www.w3.org/2000/svg">
<defs >
<font id="OpenSans" horiz-adv-x="1174" ><font-face
    font-family="Open Sans Semibold"
    units-per-em="2048"
    panose-1="2 11 7 6 3 8 4 2 2 4"
    ascent="2189"
    descent="-600"
    alphabetic="0" />
<glyph unicode=" " glyph-name="space" horiz-adv-x="532" />
<glyph unicode="!" glyph-name="exclam" horiz-adv-x="557" d="M336 444H160L328 1462H600L336 444ZM33 96Q33 176 78 226T209 276Q266 276 300 244T334 150Q334 71 287 22T164 -27Q102 -27 68 6T33 96Z" />
<glyph unicode="&quot;" glyph-name="quotedbl" horiz-adv-x="858" d="M516 1462L365 934H213L285 1462H516ZM893 1462L741 934H588L662 1462H893Z" />
<glyph unicode="#" glyph-name="numbersign" horiz-adv-x="1323" d="M1036 872L952 586H1223L1208 418H905L784 0H604L727 418H479L358 0H184L301 418H51L68 586H348L432 872H168L184 1040H479L600 1462H778L657 1040H909L1030 1462H1204L1083 1040H1335L1321
872H1036ZM526 586H776L858 872H608L526 586Z" />
<glyph unicode="$" glyph-name="dollar" horiz-adv-x="1128" d="M987 494Q987 322 868 217T530 92L485 -119H350L395 92Q198 105 61 172V381Q139 339 240 311T434 281L518 668Q362 724 295 806T227 1006Q227 1173 345 1273T670 1391L707 1554H842L807 1389Q968
1373 1096 1307L1010 1122Q876 1188 766 1196L686 825Q814 774 872 730T959 629T987 494ZM571 285Q657 296 707 345T758 471Q758 572 643 616L571 285ZM629 1196Q540 1185 496 1139T451 1016Q451 918 561 877L629 1196Z" />
<glyph unicode="%" glyph-name="percent" horiz-adv-x="1688" d="M530 1315Q475 1315 431 1254T361 1081T334 866Q334 731 414 731Q466 731 509 789T582 964T612 1184Q612 1315 530 1315ZM805 1186Q805 1026 750 873T603 642T397 565Q273 565 207 644T141 872Q141
1038 194 1185T336 1408T545 1483Q672 1483 738 1407T805 1186ZM1511 1462L426 0H231L1317 1462H1511ZM1329 731Q1277 731 1234 674T1162 503T1133 281Q1133 147 1214 147Q1266 147 1310 205T1383 380T1413 600Q1413 731 1329 731ZM1606 604Q1606 443 1551 289T1404
57T1200 -20Q1073 -20 1007 56T940 279Q940 450 993 599T1135 822T1343 897Q1470 897 1538 822T1606 604Z" />
<glyph unicode="&amp;" glyph-name="ampersand" horiz-adv-x="1411" d="M748 1298Q661 1298 614 1244T567 1102Q567 993 629 901Q776 976 828 1034T881 1161Q881 1227 845 1262T748 1298ZM508 176Q585 176 655 203T799 285L535 666Q402 592 354 525T305 371Q305
285 361 231T508 176ZM66 350Q66 497 151 604T438 809Q350 960 350 1092Q350 1272 462 1378T760 1485Q920 1485 1012 1404T1104 1186Q1104 1057 1015 956T721 764L956 438Q1065 550 1137 733H1370Q1257 463 1073 279L1278 0H1001L907 131Q801 51 696 16T467 -20Q277
-20 172 77T66 350Z" />
<glyph unicode="&apos;" glyph-name="quotesingle" horiz-adv-x="483" d="M516 1462L365 934H213L285 1462H516Z" />
<glyph unicode="(" glyph-name="parenleft" horiz-adv-x="639" d="M78 276Q78 619 202 908T582 1462H791Q293 914 293 272Q293 -57 408 -324H225Q78 -63 78 276Z" />
<glyph unicode=")" glyph-name="parenright" horiz-adv-x="639" d="M559 860Q559 518 436 231T55 -324H-154Q344 224 344 866Q344 1193 229 1462H412Q559 1197 559 860Z" />
<glyph unicode="*" glyph-name="asterisk" horiz-adv-x="1122" d="M868 1524L752 1157L1155 1180L1143 975L776 1020L946 659L741 598L639 969L412 657L250 801L543 1067L193 1167L264 1362L618 1184L655 1567L868 1524Z" />
<glyph unicode="+" glyph-name="plus" horiz-adv-x="1128" d="M496 631H117V811H496V1192H676V811H1053V631H676V256H496V631Z" />
<glyph unicode="," glyph-name="comma" horiz-adv-x="530" d="M334 238L342 215Q217 -45 76 -264H-102Q3 -26 98 238H334Z" />
<glyph unicode="-" glyph-name="hyphen" horiz-adv-x="649" d="M47 446L92 649H594L549 446H47Z" />
<glyph unicode="." glyph-name="period" horiz-adv-x="551" d="M33 94Q33 177 80 226T211 276Q267 276 300 245T334 152Q334 74 287 23T162 -29Q96 -29 65 6T33 94Z" />
<glyph unicode="/" glyph-name="slash" horiz-adv-x="788" d="M952 1462L141 0H-92L719 1462H952Z" />
<glyph unicode="0" glyph-name="zero" horiz-adv-x="1128" d="M1100 1012Q1100 706 1021 466T802 103T477 -20Q283 -20 188 107T92 471Q92 755 175 997T397 1362T719 1485Q906 1485 1003 1367T1100 1012ZM700 1288Q603 1288 520 1176T384 864T330 469Q330 326
369 251T498 176Q598 176 680 289T812 606T862 1020Q862 1288 700 1288Z" />
<glyph unicode="1" glyph-name="one" horiz-adv-x="1128" d="M637 0H399L588 870Q616 1020 670 1194Q613 1139 535 1092L348 975L242 1145L750 1462H948L637 0Z" />
<glyph unicode="2" glyph-name="two" horiz-adv-x="1128" d="M911 0H-18L18 180L489 602Q665 761 727 833T818 966T846 1098Q846 1183 797 1232T657 1282Q587 1282 518 1252T348 1143L233 1303Q353 1400 464 1441T692 1483Q873 1483 980 1390T1087 1139Q1087 1031
1048 938T925 748T641 479L330 215V207H952L911 0Z" />
<glyph unicode="3" glyph-name="three" horiz-adv-x="1128" d="M1087 1153Q1087 995 988 889T719 752V745Q846 721 915 639T985 434Q985 301 917 198T721 37T416 -20Q191 -20 31 59V274Q115 225 216 199T412 172Q569 172 657 243T745 440Q745 659 467 659H334L371
842H477Q641 842 744 916T848 1116Q848 1195 799 1240T659 1286Q587 1286 513 1261T350 1176L246 1337Q366 1418 471 1450T698 1483Q881 1483 984 1395T1087 1153Z" />
<glyph unicode="4" glyph-name="four" horiz-adv-x="1128" d="M1047 317H846L778 0H549L618 317H-4L33 514L836 1466H1090L889 514H1090L1047 317ZM659 514L727 823Q758 959 827 1200H819Q768 1114 684 1014L262 514H659Z" />
<glyph unicode="5" glyph-name="five" horiz-adv-x="1128" d="M610 907Q791 907 898 804T1006 518Q1006 357 936 235T732 47T408 -20Q194 -20 53 59V276Q220 176 395 176Q568 176 665 259T762 489Q762 594 700 657T512 721Q417 721 287 686L199 754L399 1462H1112L1067
1253H561L455 889Q548 907 610 907Z" />
<glyph unicode="6" glyph-name="six" horiz-adv-x="1128" d="M111 446Q111 651 171 852T336 1195T587 1410T930 1483Q1047 1483 1133 1458L1090 1264Q1018 1286 909 1286Q704 1286 572 1157T375 764H381Q506 934 707 934Q863 934 950 835T1038 563Q1038 401 970
262T784 52T514 -20Q320 -20 216 100T111 446ZM530 174Q611 174 673 222T769 357T803 545Q803 745 625 745Q574 745 530 726T451 678T392 614T353 532T340 418Q340 308 389 241T530 174Z" />
<glyph unicode="7" glyph-name="seven" horiz-adv-x="1128" d="M125 0L879 1257H205L248 1462H1180L1147 1294L389 0H125Z" />
<glyph unicode="8" glyph-name="eight" horiz-adv-x="1128" d="M731 1485Q910 1485 1014 1396T1118 1157Q1118 1025 1039 928T791 764Q911 686 963 599T1016 397Q1016 276 955 181T779 33T508 -20Q305 -20 191 80T76 348Q76 645 444 780Q353 850 314 925T274 1087Q274
1266 401 1375T731 1485ZM594 672Q445 618 378 546T311 369Q311 276 370 220T528 164Q643 164 712 228T782 395Q782 486 734 552T594 672ZM711 1300Q618 1300 561 1244T504 1096Q504 1013 543 959T647 866Q762 909 824 971T887 1128Q887 1209 839 1254T711 1300Z"
/>
<glyph unicode="9" glyph-name="nine" horiz-adv-x="1128" d="M1079 1018Q1079 813 1021 604T869 255T643 48T332 -20Q199 -20 92 12V219Q213 176 328 176Q516 176 634 299T811 688H805Q692 528 500 528Q335 528 245 630T154 918Q154 1074 221 1207T407 1411T682
1483Q874 1483 976 1364T1079 1018ZM664 1288Q582 1288 519 1241T421 1111T387 932Q387 827 433 772T567 717Q684 717 765 811T846 1051Q846 1159 798 1223T664 1288Z" />
<glyph unicode=":" glyph-name="colon" horiz-adv-x="551" d="M205 948Q205 1031 252 1080T383 1130Q439 1130 472 1099T506 1006Q506 927 458 876T332 825Q266 825 236 860T205 948ZM33 94Q33 177 80 226T211 276Q267 276 300 245T334 152Q334 74 287 23T162
-29Q96 -29 65 6T33 94Z" />
<glyph unicode=";" glyph-name="semicolon" horiz-adv-x="551" d="M334 238L342 215Q217 -45 76 -264H-100Q-5 -50 98 238H334ZM205 948Q205 1031 252 1080T383 1130Q439 1130 472 1099T506 1006Q506 927 458 876T332 825Q266 825 236 860T205 948Z" />
<glyph unicode="&lt;" glyph-name="less" horiz-adv-x="1128" d="M1051 221L115 651V772L1051 1260V1065L354 721L1051 418V221Z" />
<glyph unicode="=" glyph-name="equal" horiz-adv-x="1128" d="M117 831V1010H1053V831H117ZM117 430V610H1053V430H117Z" />
<glyph unicode="&gt;" glyph-name="greater" horiz-adv-x="1128" d="M115 418L809 721L115 1065V1260L1051 772V651L115 221V418Z" />
<glyph unicode="?" glyph-name="question" horiz-adv-x="907" d="M260 444Q278 577 331 664T508 842Q615 919 654 959T712 1039T731 1128Q731 1198 689 1242T565 1286Q488 1286 415 1259T264 1194L186 1370Q393 1483 596 1483Q767 1483 865 1398T963 1155Q963
1035 900 938T668 721Q564 647 518 588T457 444H260ZM162 94Q162 177 209 226T340 276Q396 276 429 245T463 152Q463 73 414 23T289 -27Q223 -27 193 7T162 94Z" />
<glyph unicode="@" glyph-name="at" horiz-adv-x="1743" d="M1706 846Q1706 670 1647 524T1480 294T1241 211Q1143 211 1091 257T1026 377H1020Q919 211 743 211Q620 211 554 289T487 508Q487 659 554 787T742 990T1006 1065Q1058 1065 1100 1060T1180 1047T1309
1008L1208 616Q1178 502 1178 457Q1178 365 1257 365Q1329 365 1391 431T1488 606T1524 836Q1524 1064 1396 1183T1032 1303Q818 1303 647 1204T381 922T285 516Q285 257 425 115T817 -27Q1017 -27 1247 59V-96Q1028 -186 793 -186Q583 -186 426 -103T185 137T100
502Q100 772 222 991T565 1335T1059 1460Q1259 1460 1405 1386T1628 1171T1706 846ZM989 913Q903 913 831 860T717 716T676 522Q676 365 788 365Q870 365 929 437T1030 657L1094 897Q1041 913 989 913Z" />
<glyph unicode="A" glyph-name="A" horiz-adv-x="1210" d="M827 406H342L133 0H-121L662 1464H936L1102 0H868L827 406ZM811 614Q771 1030 766 1117T760 1257Q705 1118 618 950L446 614H811Z" />
<glyph unicode="B" glyph-name="B" horiz-adv-x="1247" d="M778 1462Q1000 1462 1113 1378T1227 1130Q1227 984 1141 887T901 760V752Q1009 724 1068 649T1128 465Q1128 248 978 124T561 0H70L379 1462H778ZM489 858H688Q827 858 903 918T979 1090Q979 1262 756
1262H575L489 858ZM348 201H571Q718 201 801 269T885 463Q885 561 825 612T649 664H449L348 201Z" />
<glyph unicode="C" glyph-name="C" horiz-adv-x="1225" d="M924 1278Q770 1278 649 1189T456 930T383 555Q383 375 465 280T709 184Q850 184 1038 252V47Q858 -20 664 -20Q416 -20 276 128T135 545Q135 805 240 1028T522 1367T924 1483Q1141 1483 1313 1391L1219
1196Q1156 1230 1085 1254T924 1278Z" />
<glyph unicode="D" glyph-name="D" horiz-adv-x="1374" d="M1311 893Q1311 622 1211 420T920 109T471 0H70L379 1462H748Q1019 1462 1165 1317T1311 893ZM483 201Q660 201 792 287T994 529T1065 885Q1065 1069 977 1165T721 1262H575L348 201H483Z" />
<glyph unicode="E" glyph-name="E" horiz-adv-x="1077" d="M846 0H70L379 1462H1155L1112 1257H573L489 862H991L950 659H446L350 203H889L846 0Z" />
<glyph unicode="F" glyph-name="F" horiz-adv-x="1026" d="M307 0H70L379 1462H1153L1110 1257H573L477 803H979L934 600H434L307 0Z" />
<glyph unicode="G" glyph-name="G" horiz-adv-x="1399" d="M786 793H1298L1141 57Q1029 17 923 -1T684 -20Q423 -20 279 126T135 539Q135 803 237 1022T527 1362T954 1483Q1065 1483 1167 1463T1372 1393L1282 1190Q1108 1276 948 1276Q790 1276 661 1186T458
928T383 555Q383 372 472 278T725 184Q834 184 940 217L1020 588H743L786 793Z" />
<glyph unicode="H" glyph-name="H" horiz-adv-x="1411" d="M1110 0H872L1012 659H446L307 0H70L379 1462H616L489 864H1055L1182 1462H1419L1110 0Z" />
<glyph unicode="I" glyph-name="I" horiz-adv-x="608" d="M70 0L381 1462H616L305 0H70Z" />
<glyph unicode="J" glyph-name="J" horiz-adv-x="612" d="M-152 -408Q-256 -408 -322 -383L-317 -182Q-233 -203 -164 -203Q37 -203 90 47L389 1462H627L322 16Q276 -201 161 -304T-152 -408Z" />
<glyph unicode="K" glyph-name="K" horiz-adv-x="1198" d="M1087 0H825L573 655L424 555L307 0H70L379 1462H616L465 756L606 922L1098 1462H1382L766 793L1087 0Z" />
<glyph unicode="L" glyph-name="L" horiz-adv-x="1016" d="M70 0L379 1462H616L350 205H889L846 0H70Z" />
<glyph unicode="M" glyph-name="M" horiz-adv-x="1757" d="M647 0L532 1214H526Q517 1096 471 874L287 0H68L377 1462H700L809 313H815L1421 1462H1765L1460 0H1233L1415 872Q1454 1058 1501 1214H1495L852 0H647Z" />
<glyph unicode="N" glyph-name="N" horiz-adv-x="1491" d="M1192 0H932L522 1163H516L506 1094Q482 945 471 882T287 0H68L377 1462H645L1044 313H1051Q1057 367 1082 505T1122 709L1282 1462H1501L1192 0Z" />
<glyph unicode="O" glyph-name="O" horiz-adv-x="1485" d="M1421 922Q1421 643 1326 425T1065 94T678 -20Q419 -20 277 129T135 543Q135 810 233 1030T503 1368T891 1485Q1142 1485 1281 1336T1421 922ZM872 1280Q734 1280 622 1184T447 918T383 545Q383 372 464
278T692 184Q830 184 940 279T1112 544T1174 920Q1174 1090 1095 1185T872 1280Z" />
<glyph unicode="P" glyph-name="P" d="M465 748H559Q737 748 834 827T932 1053Q932 1162 874 1212T694 1262H575L465 748ZM1174 1061Q1174 813 1005 680T532 547H422L307 0H70L379 1462H713Q942 1462 1058 1362T1174 1061Z" />
<glyph unicode="Q" glyph-name="Q" horiz-adv-x="1485" d="M1421 922Q1421 600 1291 359T936 27L1200 -348H911L709 -20H678Q419 -20 277 129T135 543Q135 810 233 1030T503 1368T891 1485Q1142 1485 1281 1336T1421 922ZM872 1280Q734 1280 622 1184T447 918T383
545Q383 372 464 278T692 184Q830 184 940 278T1112 541T1174 920Q1174 1090 1095 1185T872 1280Z" />
<glyph unicode="R" glyph-name="R" horiz-adv-x="1206" d="M430 584L307 0H70L379 1462H717Q940 1462 1059 1368T1178 1077Q1178 912 1092 799T834 633L1083 0H823L616 584H430ZM473 782H596Q766 782 850 857T934 1063Q934 1168 875 1214T692 1260H573L473 782Z" />
<glyph unicode="S" glyph-name="S" horiz-adv-x="1057" d="M930 428Q930 218 786 99T387 -20Q177 -20 39 55V279Q212 182 389 182Q526 182 605 240T684 403Q684 472 643 525T471 662Q366 729 316 784T240 904T213 1049Q213 1177 274 1276T448 1429T702 1483Q907
1483 1083 1391L997 1200Q836 1278 702 1278Q593 1278 527 1220T461 1067Q461 1020 476 985T522 919T657 823Q812 726 871 636T930 428Z" />
<glyph unicode="T" glyph-name="T" horiz-adv-x="1053" d="M528 0H291L555 1257H176L221 1462H1219L1176 1257H795L528 0Z" />
<glyph unicode="U" glyph-name="U" horiz-adv-x="1399" d="M1419 1462L1217 506Q1161 239 1009 110T606 -20Q389 -20 271 86T152 391Q152 474 172 561L365 1462H602L410 557Q389 469 389 399Q389 297 448 241T629 184Q774 184 859 264T983 526L1182 1462H1419Z" />
<glyph unicode="V" glyph-name="V" horiz-adv-x="1165" d="M506 248Q576 426 643 557L1098 1462H1352L588 0H330L186 1462H418L492 557Q501 454 503 324L502 248H506Z" />
<glyph unicode="W" glyph-name="W" horiz-adv-x="1788" d="M1317 0H1059L1022 842L1016 1027L1020 1133H1014Q967 989 897 842L512 0H256L203 1462H432L451 612Q451 476 438 266H444Q527 487 586 621L973 1462H1198L1229 623L1232 454L1229 266H1237Q1265 354
1307 463T1368 616L1726 1462H1972L1317 0Z" />
<glyph unicode="X" glyph-name="X" horiz-adv-x="1151" d="M1040 0H784L592 592L154 0H-111L475 770L225 1462H471L649 922L1051 1462H1317L766 752L1040 0Z" />
<glyph unicode="Y" glyph-name="Y" horiz-adv-x="1092" d="M582 793L1014 1462H1280L657 549L543 0H305L424 553L186 1462H428L582 793Z" />
<glyph unicode="Z" glyph-name="Z" horiz-adv-x="1092" d="M901 0H-39L-6 168L844 1255H246L289 1462H1186L1151 1290L299 205H944L901 0Z" />
<glyph unicode="[" glyph-name="bracketleft" horiz-adv-x="631" d="M403 -324H-27L354 1462H784L745 1286H524L221 -147H442L403 -324Z" />
<glyph unicode="\" glyph-name="backslash" horiz-adv-x="788" d="M428 1462L647 0H438L221 1462H428Z" />
<glyph unicode="]" glyph-name="bracketright" horiz-adv-x="631" d="M-106 -147H113L418 1286H197L236 1462H666L285 -324H-143L-106 -147Z" />
<glyph unicode="^" glyph-name="asciicircum" horiz-adv-x="1069" d="M37 537L645 1470H772L1044 537H860L672 1227L238 537H37Z" />
<glyph unicode="_" glyph-name="underscore" horiz-adv-x="813" d="M629 -324H-188L-158 -184H659L629 -324Z" />
<glyph unicode="`" glyph-name="grave" horiz-adv-x="1135" d="M918 1241H774Q709 1304 642 1392T541 1548V1569H786Q833 1415 918 1266V1241Z" />
<glyph unicode="a" glyph-name="a" horiz-adv-x="1186" d="M399 -20Q258 -20 176 81T94 367Q94 569 163 745T355 1023T623 1126Q720 1126 790 1081T899 948H909L971 1106H1151L915 0H733L754 176H748Q590 -20 399 -20ZM485 170Q567 170 646 247T776 455T827 739Q827
827 780 880T657 934Q572 934 497 857T377 648T332 373Q332 271 372 221T485 170Z" />
<glyph unicode="b" glyph-name="b" horiz-adv-x="1200" d="M578 -20Q480 -20 410 25T299 156H289L225 0H47L377 1556H612L541 1223Q528 1160 503 1067T463 926H471Q561 1039 636 1082T797 1126Q942 1126 1023 1023T1104 737Q1104 535 1035 358T844 80T578 -20ZM711
934Q630 934 549 854T419 644T369 373Q369 277 415 224T547 170Q632 170 706 248T823 458T866 733Q866 934 711 934Z" />
<glyph unicode="c" glyph-name="c" horiz-adv-x="954" d="M506 -20Q310 -20 202 86T94 389Q94 596 167 765T374 1030T676 1126Q840 1126 973 1065L903 881Q781 934 682 934Q532 934 432 781T332 401Q332 290 388 230T543 170Q617 170 681 192T811 246V51Q671 -20
506 -20Z" />
<glyph unicode="d" glyph-name="d" horiz-adv-x="1198" d="M623 1126Q802 1126 891 948H899Q912 1094 936 1198L1012 1556H1245L915 0H731L750 176H743Q655 70 573 25T399 -20Q256 -20 175 81T94 369Q94 574 165 752T357 1028T623 1126ZM489 170Q571 170 651 252T780
466T829 733Q829 824 786 879T653 934Q568 934 494 857T376 646T332 373Q332 170 489 170Z" />
<glyph unicode="e" glyph-name="e" horiz-adv-x="1075" d="M664 946Q568 946 484 860T362 633H391Q579 633 685 686T791 838Q791 889 759 917T664 946ZM512 -20Q315 -20 205 91T94 401Q94 599 171 769T381 1033T678 1126Q839 1126 928 1054T1018 848Q1018 666
852 564T377 461H334L332 430V401Q332 290 388 227T557 164Q629 164 700 183T868 248V61Q772 17 692 -1T512 -20Z" />
<glyph unicode="f" glyph-name="f" horiz-adv-x="702" d="M-76 -492Q-166 -492 -225 -469V-279Q-161 -299 -111 -299Q23 -299 66 -94L283 928H104L125 1034L319 1110L340 1202Q384 1400 474 1483T731 1567Q846 1567 942 1524L881 1348Q807 1376 745 1376Q676 1376
635 1333T571 1192L553 1106H782L745 928H516L293 -125Q253 -314 162 -403T-76 -492Z" />
<glyph unicode="g" glyph-name="g" horiz-adv-x="1067" d="M1143 1106L1112 969L920 936Q948 878 948 799Q948 606 829 493T510 379Q458 379 418 387Q307 347 307 283Q307 245 338 231T430 209L557 193Q733 171 809 106T885 -82Q885 -278 734 -385T305 -492Q102
-492 -9 -417T-121 -211Q-121 -108 -52 -33T172 94Q96 139 96 221Q96 290 142 340T289 438Q154 519 154 690Q154 886 276 1006T600 1126Q680 1126 760 1106H1143ZM324 18Q212 0 152 -53T92 -184Q92 -249 147 -287T317 -326Q480 -326 572 -272T664 -117Q664 -66
619 -37T461 4L324 18ZM594 969Q529 969 480 931T404 826T377 680Q377 609 412 571T514 532Q579 532 626 571T700 678T727 827Q727 969 594 969Z" />
<glyph unicode="h" glyph-name="h" horiz-adv-x="1208" d="M702 0L844 672Q862 762 862 799Q862 934 733 934Q621 934 524 809T381 467L283 0H47L377 1556H612L555 1294Q528 1168 482 1001L463 926H471Q555 1032 639 1079T817 1126Q953 1126 1025 1049T1098 827Q1098
751 1075 653L936 0H702Z" />
<glyph unicode="i" glyph-name="i" horiz-adv-x="563" d="M330 1378Q330 1446 369 1488T479 1530Q532 1530 565 1504T598 1423Q598 1352 558 1311T453 1270Q400 1270 365 1296T330 1378ZM283 0H47L283 1106H518L283 0Z" />
<glyph unicode="j" glyph-name="j" horiz-adv-x="563" d="M-113 -492Q-203 -492 -262 -469V-279Q-198 -299 -145 -299Q-14 -299 25 -113L285 1106H518L252 -141Q214 -322 125 -407T-113 -492ZM332 1378Q332 1446 370 1488T479 1530Q533 1530 565 1504T598 1423Q598
1352 558 1311T453 1270Q400 1270 366 1295T332 1378Z" />
<glyph unicode="k" glyph-name="k" horiz-adv-x="1081" d="M887 1106H1159L676 621L967 0H705L496 471L360 375L283 0H47L377 1556H612Q477 929 453 827T393 600H397L887 1106Z" />
<glyph unicode="l" glyph-name="l" horiz-adv-x="563" d="M281 0H47L377 1556H612L281 0Z" />
<glyph unicode="m" glyph-name="m" horiz-adv-x="1819" d="M807 1126Q1027 1126 1061 891H1069Q1144 1007 1239 1066T1438 1126Q1571 1126 1640 1050T1710 834Q1710 770 1688 653L1548 0H1313L1456 672Q1475 767 1475 805Q1475 934 1354 934Q1246 934 1153 810T1016
481L915 0H680L823 672Q840 754 840 799Q840 934 723 934Q613 934 520 807T381 469L283 0H47L283 1106H467L446 901H455Q603 1126 807 1126Z" />
<glyph unicode="n" glyph-name="n" horiz-adv-x="1208" d="M702 0L844 672Q862 762 862 803Q862 934 733 934Q661 934 591 877T465 713T381 469L283 0H47L283 1106H467L446 901H455Q538 1019 626 1072T817 1126Q951 1126 1024 1050T1098 834Q1098 765 1075 653L938
0H702Z" />
<glyph unicode="o" glyph-name="o" d="M842 702Q842 809 793 869T653 930Q560 930 487 859T373 665T332 403Q332 292 381 233T528 174Q618 174 690 242T802 432T842 702ZM1079 692Q1079 490 1006 325T806 71T512 -18Q320 -18 207 96T94 408Q94 607 165 773T366
1031T664 1124Q859 1124 969 1008T1079 692Z" />
<glyph unicode="p" glyph-name="p" horiz-adv-x="1200" d="M578 -20Q397 -20 309 156H299Q292 59 274 -29L178 -492H-55L283 1106H467L446 918H455Q612 1126 799 1126Q942 1126 1023 1023T1104 737Q1104 533 1034 356T844 79T578 -20ZM711 934Q630 934 550 855T420
644T369 373Q369 277 415 224T547 170Q632 170 706 248T823 458T866 733Q866 934 711 934Z" />
<glyph unicode="q" glyph-name="q" horiz-adv-x="1198" d="M625 1126Q808 1126 899 948H909L973 1106H1151L811 -492H578L653 -143Q665 -87 696 37T735 178H727Q643 70 563 25T393 -20Q254 -20 174 82T94 367Q94 575 167 754T359 1029T625 1126ZM492 170Q572 170
651 251T778 464T827 733Q827 827 782 880T655 934Q569 934 495 857T377 647T332 373Q332 170 492 170Z" />
<glyph unicode="r" glyph-name="r" horiz-adv-x="836" d="M797 1126Q859 1126 905 1114L854 895Q800 909 752 909Q626 909 527 796T389 500L283 0H47L283 1106H467L446 901H455Q538 1021 621 1073T797 1126Z" />
<glyph unicode="s" glyph-name="s" horiz-adv-x="922" d="M782 340Q782 167 664 74T336 -20Q146 -20 14 47V250Q167 160 326 160Q423 160 483 200T543 309Q543 360 509 396T367 494Q242 561 191 630T139 795Q139 950 246 1038T535 1126Q731 1126 881 1042L805
866Q665 942 539 942Q466 942 421 909T375 817Q375 772 408 737T543 647Q648 588 692 546T759 455T782 340Z" />
<glyph unicode="t" glyph-name="t" horiz-adv-x="752" d="M455 170Q523 170 606 201V23Q571 6 511 -7T391 -20Q117 -20 117 227Q117 284 133 358L254 928H92L113 1038L303 1120L432 1352H578L526 1106H805L766 928H489L367 356Q354 301 354 264Q354 221 379 196T455 170Z" />
<glyph unicode="u" glyph-name="u" horiz-adv-x="1208" d="M506 1106L377 496Q346 355 346 303Q346 170 473 170Q545 170 616 227T742 389T827 637L926 1106H1159L926 0H741L762 205H754Q672 89 583 35T391 -20Q257 -20 184 56T111 274Q111 337 123 398T147 522L270
1106H506Z" />
<glyph unicode="v" glyph-name="v" horiz-adv-x="997" d="M231 0L100 1106H332L387 508Q401 349 401 211H408Q436 285 478 376T543 508L854 1106H1104L506 0H231Z" />
<glyph unicode="w" glyph-name="w" horiz-adv-x="1540" d="M844 0L825 627L824 697L827 897Q802 835 776 772T430 0H168L121 1106H342L355 460Q353 373 344 215H350Q416 391 459 487L737 1106H991L1010 502L1011 449L1008 215H1014Q1031 265 1071 373T1134 537T1386
1106H1630L1112 0H844Z" />
<glyph unicode="x" glyph-name="x" horiz-adv-x="1032" d="M489 387L184 0H-86L389 569L158 1106H403L547 733L834 1106H1108L647 557L895 0H649L489 387Z" />
<glyph unicode="y" glyph-name="y" horiz-adv-x="1004" d="M100 1106H332L395 575Q404 513 411 401T418 219H424Q510 434 559 532L852 1106H1106L418 -174Q328 -339 222 -415T-27 -492Q-103 -492 -170 -473V-285Q-95 -301 -45 -301Q29 -301 89 -258T213 -102L264
-10L100 1106Z" />
<glyph unicode="z" glyph-name="z" horiz-adv-x="920" d="M719 0H-39L-10 147L625 928H186L225 1106H930L893 936L270 178H756L719 0Z" />
<glyph unicode="{" glyph-name="braceleft" horiz-adv-x="721" d="M457 -324Q141 -324 141 -88Q141 -27 158 45L203 246Q217 311 217 344Q217 485 8 485L47 672Q167 672 238 714T332 858L391 1133Q419 1267 464 1334T584 1432T782 1462H842L801 1278Q705 1278
662 1244T600 1128L530 819Q506 711 443 649T264 569V563Q424 518 424 348Q424 310 408 227L365 33Q354 -15 354 -41Q354 -92 386 -115T496 -139V-324H457Z" />
<glyph unicode="|" glyph-name="bar" horiz-adv-x="1128" d="M498 1552H676V-481H498V1552Z" />
<glyph unicode="}" glyph-name="braceright" horiz-adv-x="721" d="M270 1462Q588 1462 588 1227Q588 1166 571 1094L526 891Q512 826 512 793Q512 651 721 651L682 465Q561 465 490 423T397 281L334 -25Q300 -190 211 -257T-59 -324H-88V-141Q18 -139 64 -105T129
10L199 319Q223 428 286 489T465 567V573Q307 621 307 788Q307 843 324 909L367 1106Q377 1150 377 1180Q377 1238 334 1258T213 1278L248 1462H270Z" />
<glyph unicode="~" glyph-name="asciitilde" horiz-adv-x="1128" d="M344 692Q293 692 232 661T111 571V762Q211 870 360 870Q424 870 478 858T625 807Q695 777 740 765T834 752Q884 752 946 783T1067 872V682Q964 571 817 571Q754 571 693 587T555 637Q479 669
436 680T344 692Z" />
<glyph unicode="&#xa0;" glyph-name="nbspace" horiz-adv-x="532" />
<glyph unicode="&#xa1;" glyph-name="exclamdown" horiz-adv-x="557" d="M221 645H395L229 -373H-45L221 645ZM522 993Q522 913 475 863T348 813Q289 813 255 844T221 936Q221 1018 270 1068T397 1118Q462 1118 492 1083T522 993Z" />
<glyph unicode="&#xa2;" glyph-name="cent" horiz-adv-x="1128" d="M578 -20H422L467 193Q335 227 265 327T195 586Q195 776 258 937T436 1197T698 1319L733 1483H889L852 1319Q976 1307 1073 1262L1004 1077Q879 1130 782 1130Q683 1130 602 1059T477 864T432
598Q432 487 488 427T643 367Q717 367 781 388T911 442V248Q778 179 618 174L578 -20Z" />
<glyph unicode="&#xa3;" glyph-name="sterling" horiz-adv-x="1128" d="M856 1483Q1044 1483 1208 1397L1120 1214Q977 1288 862 1288Q677 1288 635 1083L578 805H911L877 633H541L508 481Q487 383 440 316T309 207H999L954 0H-18L20 193Q220 238 270 469L305
633H109L145 805H342L403 1104Q441 1289 556 1386T856 1483Z" />
<glyph unicode="&#xa4;" glyph-name="currency" horiz-adv-x="1128" d="M209 723Q209 833 270 928L141 1057L260 1176L387 1049Q489 1110 594 1110Q702 1110 801 1047L928 1176L1049 1059L920 930Q981 831 981 723Q981 609 920 514L1047 389L928 270L801 397Q706
338 594 338Q474 338 387 397L260 272L143 391L270 516Q209 611 209 723ZM377 723Q377 632 439 569T594 506Q685 506 750 568T815 723Q815 816 750 879T594 942Q502 942 440 878T377 723Z" />
<glyph unicode="&#xa5;" glyph-name="yen" horiz-adv-x="1128" d="M594 793L1026 1462H1274L756 702H973L938 547H664L633 399H907L874 244H602L549 0H328L379 244H106L139 399H412L442 547H170L205 702H416L217 1462H449L594 793Z" />
<glyph unicode="&#xa6;" glyph-name="brokenbar" horiz-adv-x="1128" d="M498 1552H676V758H498V1552ZM498 315H676V-481H498V315Z" />
<glyph unicode="&#xa7;" glyph-name="section" horiz-adv-x="995" d="M162 764Q162 952 381 1071Q334 1103 303 1153T272 1268Q272 1406 383 1488T680 1571Q858 1571 1012 1493L944 1335Q882 1364 815 1385T670 1407Q584 1407 536 1373T487 1278Q487 1235 523
1202T672 1118Q799 1062 858 991T918 823Q918 731 866 652T705 512Q807 436 807 319Q807 162 684 74T354 -14Q166 -14 39 53V240Q191 147 358 147Q474 147 532 187T590 299Q590 342 551 378T410 463Q280 523 221 594T162 764ZM510 987Q441 961 400 908T358 793Q358
732 404 689T578 588Q640 624 677 678T715 793Q715 853 666 897T510 987Z" />
<glyph unicode="&#xa8;" glyph-name="dieresis" horiz-adv-x="1135" d="M426 1380Q426 1440 461 1478T559 1516Q607 1516 635 1493T664 1421Q664 1356 629 1319T535 1282Q488 1282 457 1305T426 1380ZM809 1380Q809 1440 844 1478T942 1516Q990 1516 1018 1493T1047
1421Q1047 1356 1012 1319T918 1282Q871 1282 840 1305T809 1380Z" />
<glyph unicode="&#xa9;" glyph-name="copyright" horiz-adv-x="1704" d="M930 1034Q817 1034 755 958T692 727Q692 426 930 426Q977 426 1042 442T1151 477V319Q1034 268 911 268Q714 268 608 391T502 727Q502 943 615 1067T928 1192Q1066 1192 1194 1126L1126
979Q1020 1034 930 1034ZM131 731Q131 931 231 1106T506 1382T883 1483Q1082 1483 1256 1384T1532 1109T1634 731Q1634 532 1536 358T1263 82T883 -20Q676 -20 501 83T229 360T131 731ZM254 731Q254 563 337 419T566 188T883 102Q1056 102 1202 189T1430 420T1511
731Q1511 896 1429 1041T1202 1273T883 1360Q715 1360 569 1276T338 1045T254 731Z" />
<glyph unicode="&#xaa;" glyph-name="ordfeminine" horiz-adv-x="729" d="M498 1479Q611 1479 664 1376H670L709 1466H827L680 782H557L567 887H563Q513 825 465 798T356 770Q265 770 213 836T160 1016Q160 1144 207 1254T329 1422T498 1479ZM412 897Q462 897
509 945T586 1072T616 1231Q616 1350 514 1350Q432 1350 376 1253T319 1022Q319 897 412 897Z" />
<glyph unicode="&#xab;" glyph-name="guillemotleft" horiz-adv-x="1055" d="M80 575L475 995L610 877L322 545L475 176L297 100L80 553V575ZM520 555L905 989L1042 877L762 526L909 176L729 100L520 530V555Z" />
<glyph unicode="&#xac;" glyph-name="logicalnot" horiz-adv-x="1128" d="M1053 811V256H874V631H117V811H1053Z" />
<glyph unicode="&#xad;" glyph-name="uni00AD" horiz-adv-x="649" d="M47 446L92 649H594L549 446H47Z" />
<glyph unicode="&#xae;" glyph-name="registered" horiz-adv-x="1704" d="M131 731Q131 931 231 1106T506 1382T883 1483Q1082 1483 1256 1384T1532 1109T1634 731Q1634 532 1536 358T1263 82T883 -20Q676 -20 501 83T229 360T131 731ZM254 731Q254 563 337 419T566
188T883 102Q1056 102 1202 189T1430 420T1511 731Q1511 896 1429 1041T1202 1273T883 1360Q715 1360 569 1276T338 1045T254 731ZM1214 907Q1214 824 1169 762T1038 664L1249 291H1049L877 616H786V291H608V1169H877Q1214 1169 1214 907ZM786 760H858Q942 760
987 796T1032 895Q1032 968 987 996T858 1024H786V760Z" />
<glyph unicode="&#xaf;" glyph-name="overscore" horiz-adv-x="903" d="M1020 1556H111L150 1722H1061L1020 1556Z" />
<glyph unicode="&#xb0;" glyph-name="degree" horiz-adv-x="877" d="M188 1153Q188 1289 285 1386T518 1483Q654 1483 750 1386T846 1153Q846 1016 750 922T518 827Q430 827 353 871T232 990T188 1153ZM340 1153Q340 1083 392 1031T518 979Q590 979 642 1031T694
1153Q694 1227 643 1279T518 1331Q444 1331 392 1280T340 1153Z" />
<glyph unicode="&#xb1;" glyph-name="plusminus" horiz-adv-x="1128" d="M496 657H117V838H496V1219H676V838H1053V657H676V283H496V657ZM117 0V180H1053V0H117Z" />
<glyph unicode="&#xb2;" glyph-name="twosuperior" horiz-adv-x="745" d="M682 586H78L106 721L375 944Q486 1039 523 1080T578 1157T596 1231Q596 1277 568 1303T492 1329Q401 1329 301 1249L221 1372Q289 1426 363 1453T532 1481Q647 1481 715 1421T784 1266Q784
1197 761 1142T687 1031T518 885L344 743H715L682 586Z" />
<glyph unicode="&#xb3;" glyph-name="threesuperior" horiz-adv-x="745" d="M784 1272Q784 1182 730 1123T571 1038V1034Q649 1016 686 967T723 852Q723 723 624 646T354 569Q216 569 104 625V784Q230 713 352 713Q442 713 491 750T541 856Q541 969 395 969H287L315
1102H408Q497 1102 550 1136T604 1235Q604 1335 487 1335Q395 1335 299 1270L231 1391Q357 1481 522 1481Q646 1481 715 1426T784 1272Z" />
<glyph unicode="&#xb4;" glyph-name="acute" horiz-adv-x="1135" d="M508 1266Q605 1374 733 1569H997V1550Q943 1484 839 1389T664 1241H508V1266Z" />
<glyph unicode="&#xb5;" glyph-name="mu" horiz-adv-x="1221" d="M358 307Q358 242 391 206T487 170Q600 170 696 295T838 633L940 1106H1171L936 0H752L774 190H764Q689 79 611 30T446 -20Q338 -20 291 61H283Q274 -12 244 -174L178 -492H-55L283 1106H518L377
436Q358 352 358 307Z" />
<glyph unicode="&#xb6;" glyph-name="paragraph" horiz-adv-x="1341" d="M1204 -260H1065V1378H877V-260H737V559Q675 541 592 541Q376 541 274 666T172 1042Q172 1302 281 1429T623 1556H1204V-260Z" />
<glyph unicode="&#xb7;" glyph-name="middot" horiz-adv-x="551" d="M150 692Q150 775 197 824T328 874Q384 874 417 843T451 750Q451 672 404 621T279 569Q213 569 182 604T150 692Z" />
<glyph unicode="&#xb8;" glyph-name="cedilla" horiz-adv-x="420" d="M236 -264Q236 -370 154 -431T-70 -492Q-134 -492 -188 -477V-342Q-141 -356 -92 -356Q45 -356 45 -260Q45 -220 10 -199T-94 -168L4 0H150L100 -96Q172 -121 204 -163T236 -264Z" />
<glyph unicode="&#xb9;" glyph-name="onesuperior" horiz-adv-x="745" d="M532 1462H694L508 586H317L416 1047Q433 1126 473 1264Q452 1244 424 1221T270 1118L193 1247L532 1462Z" />
<glyph unicode="&#xba;" glyph-name="ordmasculine" horiz-adv-x="721" d="M776 1206Q776 1080 734 981T613 826T424 770Q302 770 233 843T164 1047Q164 1169 208 1268T333 1423T522 1479Q646 1479 711 1408T776 1206ZM510 1346Q429 1346 378 1259T326 1042Q326
901 438 901Q515 901 565 988T616 1208Q616 1346 510 1346Z" />
<glyph unicode="&#xbb;" glyph-name="guillemotright" horiz-adv-x="1055" d="M975 510L578 92L444 211L731 541L578 911L758 987L975 532V510ZM535 530L150 98L10 211L291 559L145 911L324 987L535 555V530Z" />
<glyph unicode="&#xbc;" glyph-name="onequarter" horiz-adv-x="1661" d="M1429 1462L346 0H149L1234 1462H1429ZM746 1462H908L722 586H531L630 1047Q647 1126 687 1264Q666 1244 638 1221T484 1118L407 1247L746 1462ZM1448 177H1326L1287 1H1104L1143 177H775L801
314L1278 883H1475L1354 320H1477L1448 177ZM1172 320L1224 541L1258 670Q1226 619 1160 539L973 320H1172Z" />
<glyph unicode="&#xbd;" glyph-name="onehalf" horiz-adv-x="1661" d="M1401 1462L318 0H121L1206 1462H1401ZM717 1462H879L693 586H502L601 1047Q618 1126 658 1264Q637 1244 609 1221T455 1118L378 1247L717 1462ZM1464 1H860L888 136L1157 359Q1268 454 1305
495T1360 572T1378 646Q1378 692 1350 718T1274 744Q1183 744 1083 664L1003 787Q1071 841 1145 868T1314 896Q1429 896 1497 836T1566 681Q1566 612 1543 557T1469 446T1300 300L1126 158H1497L1464 1Z" />
<glyph unicode="&#xbe;" glyph-name="threequarters" horiz-adv-x="1683" d="M1571 1462L488 0H291L1376 1462H1571ZM1554 177H1432L1393 1H1210L1249 177H881L907 314L1384 883H1581L1460 320H1583L1554 177ZM1278 320L1330 541L1364 670Q1332 619 1266 539L1079
320H1278ZM788 1272Q788 1182 734 1123T575 1038V1034Q653 1016 690 967T727 852Q727 723 628 646T358 569Q220 569 108 625V784Q234 713 356 713Q446 713 495 750T545 856Q545 969 399 969H291L319 1102H412Q501 1102 554 1136T608 1235Q608 1335 491 1335Q399
1335 303 1270L235 1391Q361 1481 526 1481Q650 1481 719 1426T788 1272Z" />
<glyph unicode="&#xbf;" glyph-name="questiondown" horiz-adv-x="907" d="M668 643Q643 497 589 412T418 244Q311 165 273 126T216 47T197 -41Q197 -112 239 -155T362 -199Q438 -199 511 -172T664 -106L739 -283Q534 -395 330 -395Q156 -395 61 -310T-35 -68Q-35
52 29 151T260 367Q353 431 401 489T471 643H668ZM766 993Q766 908 718 859T588 809Q532 809 499 841T465 934Q465 1012 511 1063T637 1114Q703 1114 734 1080T766 993Z" />
<glyph unicode="&#xc0;" glyph-name="Agrave" horiz-adv-x="1210" d="M827 406H342L133 0H-121L662 1464H936L1102 0H868L827 406ZM811 614Q771 1030 766 1117T760 1257Q705 1118 618 950L446 614H811ZM915 1579H771Q706 1642 639 1730T538 1886V1907H783Q830
1753 915 1604V1579Z" />
<glyph unicode="&#xc1;" glyph-name="Aacute" horiz-adv-x="1210" d="M827 406H342L133 0H-121L662 1464H936L1102 0H868L827 406ZM811 614Q771 1030 766 1117T760 1257Q705 1118 618 950L446 614H811ZM707 1604Q804 1712 932 1907H1196V1888Q1142 1822 1038 1727T863
1579H707V1604Z" />
<glyph unicode="&#xc2;" glyph-name="Acircumflex" horiz-adv-x="1210" d="M827 406H342L133 0H-121L662 1464H936L1102 0H868L827 406ZM811 614Q771 1030 766 1117T760 1257Q705 1118 618 950L446 614H811ZM1157 1579H1005Q929 1642 844 1757Q713 1647 608 1579H444V1604Q582
1732 645 1799T735 1907H983Q1021 1808 1157 1604V1579Z" />
<glyph unicode="&#xc3;" glyph-name="Atilde" horiz-adv-x="1210" d="M827 406H342L133 0H-121L662 1464H936L1102 0H868L827 406ZM811 614Q771 1030 766 1117T760 1257Q705 1118 618 950L446 614H811ZM967 1579Q922 1579 885 1596T813 1633T748 1671T684 1688Q646
1688 621 1661T578 1577H441Q498 1862 697 1862Q743 1862 782 1845T854 1807T918 1769T977 1751Q1017 1751 1042 1777T1090 1864H1227Q1161 1579 967 1579Z" />
<glyph unicode="&#xc4;" glyph-name="Adieresis" horiz-adv-x="1210" d="M827 406H342L133 0H-121L662 1464H936L1102 0H868L827 406ZM811 614Q771 1030 766 1117T760 1257Q705 1118 618 950L446 614H811ZM518 1718Q518 1778 553 1816T651 1854Q699 1854 727 1831T756
1759Q756 1694 721 1657T627 1620Q580 1620 549 1643T518 1718ZM901 1718Q901 1778 936 1816T1034 1854Q1082 1854 1110 1831T1139 1759Q1139 1694 1104 1657T1010 1620Q963 1620 932 1643T901 1718Z" />
<glyph unicode="&#xc5;" glyph-name="Aring" horiz-adv-x="1210" d="M827 406H342L133 0H-121L662 1464H936L1102 0H868L827 406ZM811 614Q771 1030 766 1117T760 1257Q705 1118 618 950L446 614H811ZM1039 1575Q1039 1471 973 1410T801 1348Q695 1348 632 1409T568
1573Q568 1676 633 1737T801 1799Q905 1799 972 1739T1039 1575ZM908 1573Q908 1623 878 1651T801 1680Q756 1680 727 1652T697 1573Q697 1524 723 1497T801 1469Q848 1469 878 1496T908 1573Z" />
<glyph unicode="&#xc6;" glyph-name="AE" horiz-adv-x="1753" d="M1520 0H743L829 406H397L141 0H-121L809 1462H1829L1786 1257H1247L1163 862H1667L1624 662H1122L1024 203H1563L1520 0ZM872 614L1010 1257H928L528 614H872Z" />
<glyph unicode="&#xc7;" glyph-name="Ccedilla" horiz-adv-x="1225" d="M924 1278Q770 1278 649 1189T456 930T383 555Q383 375 465 280T709 184Q850 184 1038 252V47Q858 -20 664 -20Q416 -20 276 128T135 545Q135 805 240 1028T522 1367T924 1483Q1141 1483
1313 1391L1219 1196Q1156 1230 1085 1254T924 1278ZM791 -264Q791 -370 709 -431T485 -492Q421 -492 367 -477V-342Q414 -356 463 -356Q600 -356 600 -260Q600 -220 565 -199T461 -168L559 0H705L655 -96Q727 -121 759 -163T791 -264Z" />
<glyph unicode="&#xc8;" glyph-name="Egrave" horiz-adv-x="1077" d="M846 0H70L379 1462H1155L1112 1257H573L489 862H991L950 659H446L350 203H889L846 0ZM903 1579H759Q694 1642 627 1730T526 1886V1907H771Q818 1753 903 1604V1579Z" />
<glyph unicode="&#xc9;" glyph-name="Eacute" horiz-adv-x="1077" d="M846 0H70L379 1462H1155L1112 1257H573L489 862H991L950 659H446L350 203H889L846 0ZM633 1604Q730 1712 858 1907H1122V1888Q1068 1822 964 1727T789 1579H633V1604Z" />
<glyph unicode="&#xca;" glyph-name="Ecircumflex" horiz-adv-x="1077" d="M846 0H70L379 1462H1155L1112 1257H573L489 862H991L950 659H446L350 203H889L846 0ZM1130 1579H978Q902 1642 817 1757Q686 1647 581 1579H417V1604Q555 1732 618 1799T708 1907H956Q994
1808 1130 1604V1579Z" />
<glyph unicode="&#xcb;" glyph-name="Edieresis" horiz-adv-x="1077" d="M846 0H70L379 1462H1155L1112 1257H573L489 862H991L950 659H446L350 203H889L846 0ZM479 1718Q479 1778 514 1816T612 1854Q660 1854 688 1831T717 1759Q717 1694 682 1657T588 1620Q541
1620 510 1643T479 1718ZM862 1718Q862 1778 897 1816T995 1854Q1043 1854 1071 1831T1100 1759Q1100 1694 1065 1657T971 1620Q924 1620 893 1643T862 1718Z" />
<glyph unicode="&#xcc;" glyph-name="Igrave" horiz-adv-x="608" d="M70 0L381 1462H616L305 0H70ZM630 1579H486Q421 1642 354 1730T253 1886V1907H498Q545 1753 630 1604V1579Z" />
<glyph unicode="&#xcd;" glyph-name="Iacute" horiz-adv-x="608" d="M70 0L381 1462H616L305 0H70ZM415 1604Q512 1712 640 1907H904V1888Q850 1822 746 1727T571 1579H415V1604Z" />
<glyph unicode="&#xce;" glyph-name="Icircumflex" horiz-adv-x="608" d="M70 0L381 1462H616L305 0H70ZM873 1579H721Q645 1642 560 1757Q429 1647 324 1579H160V1604Q298 1732 361 1799T451 1907H699Q737 1808 873 1604V1579Z" />
<glyph unicode="&#xcf;" glyph-name="Idieresis" horiz-adv-x="608" d="M70 0L381 1462H616L305 0H70ZM243 1718Q243 1778 278 1816T376 1854Q424 1854 452 1831T481 1759Q481 1694 446 1657T352 1620Q305 1620 274 1643T243 1718ZM626 1718Q626 1778 661 1816T759
1854Q807 1854 835 1831T864 1759Q864 1694 829 1657T735 1620Q688 1620 657 1643T626 1718Z" />
<glyph unicode="&#xd0;" glyph-name="Eth" horiz-adv-x="1374" d="M1311 893Q1311 622 1211 420T920 109T471 0H70L199 623H53L98 823H242L379 1462H748Q1019 1462 1165 1317T1311 893ZM483 201Q660 201 792 287T994 529T1065 885Q1065 1069 977 1165T721 1262H575L481
823H766L721 623H438L348 201H483Z" />
<glyph unicode="&#xd1;" glyph-name="Ntilde" horiz-adv-x="1491" d="M1192 0H932L522 1163H516L506 1094Q482 945 471 882T287 0H68L377 1462H645L1044 313H1051Q1057 367 1082 505T1122 709L1282 1462H1501L1192 0ZM1108 1579Q1063 1579 1026 1596T954 1633T889
1671T825 1688Q787 1688 762 1661T719 1577H582Q639 1862 838 1862Q884 1862 923 1845T995 1807T1059 1769T1118 1751Q1158 1751 1183 1777T1231 1864H1368Q1302 1579 1108 1579Z" />
<glyph unicode="&#xd2;" glyph-name="Ograve" horiz-adv-x="1485" d="M1421 922Q1421 643 1326 425T1065 94T678 -20Q419 -20 277 129T135 543Q135 810 233 1030T503 1368T891 1485Q1142 1485 1281 1336T1421 922ZM872 1280Q734 1280 622 1184T447 918T383 545Q383
372 464 278T692 184Q830 184 940 279T1112 544T1174 920Q1174 1090 1095 1185T872 1280ZM1029 1579H885Q820 1642 753 1730T652 1886V1907H897Q944 1753 1029 1604V1579Z" />
<glyph unicode="&#xd3;" glyph-name="Oacute" horiz-adv-x="1485" d="M1421 922Q1421 643 1326 425T1065 94T678 -20Q419 -20 277 129T135 543Q135 810 233 1030T503 1368T891 1485Q1142 1485 1281 1336T1421 922ZM872 1280Q734 1280 622 1184T447 918T383 545Q383
372 464 278T692 184Q830 184 940 279T1112 544T1174 920Q1174 1090 1095 1185T872 1280ZM787 1604Q884 1712 1012 1907H1276V1888Q1222 1822 1118 1727T943 1579H787V1604Z" />
<glyph unicode="&#xd4;" glyph-name="Ocircumflex" horiz-adv-x="1485" d="M1421 922Q1421 643 1326 425T1065 94T678 -20Q419 -20 277 129T135 543Q135 810 233 1030T503 1368T891 1485Q1142 1485 1281 1336T1421 922ZM872 1280Q734 1280 622 1184T447 918T383
545Q383 372 464 278T692 184Q830 184 940 279T1112 544T1174 920Q1174 1090 1095 1185T872 1280ZM1268 1579H1116Q1040 1642 955 1757Q824 1647 719 1579H555V1604Q693 1732 756 1799T846 1907H1094Q1132 1808 1268 1604V1579Z" />
<glyph unicode="&#xd5;" glyph-name="Otilde" horiz-adv-x="1485" d="M1421 922Q1421 643 1326 425T1065 94T678 -20Q419 -20 277 129T135 543Q135 810 233 1030T503 1368T891 1485Q1142 1485 1281 1336T1421 922ZM872 1280Q734 1280 622 1184T447 918T383 545Q383
372 464 278T692 184Q830 184 940 279T1112 544T1174 920Q1174 1090 1095 1185T872 1280ZM1069 1579Q1024 1579 987 1596T915 1633T850 1671T786 1688Q748 1688 723 1661T680 1577H543Q600 1862 799 1862Q845 1862 884 1845T956 1807T1020 1769T1079 1751Q1119
1751 1144 1777T1192 1864H1329Q1263 1579 1069 1579Z" />
<glyph unicode="&#xd6;" glyph-name="Odieresis" horiz-adv-x="1485" d="M1421 922Q1421 643 1326 425T1065 94T678 -20Q419 -20 277 129T135 543Q135 810 233 1030T503 1368T891 1485Q1142 1485 1281 1336T1421 922ZM872 1280Q734 1280 622 1184T447 918T383
545Q383 372 464 278T692 184Q830 184 940 279T1112 544T1174 920Q1174 1090 1095 1185T872 1280ZM623 1718Q623 1778 658 1816T756 1854Q804 1854 832 1831T861 1759Q861 1694 826 1657T732 1620Q685 1620 654 1643T623 1718ZM1006 1718Q1006 1778 1041 1816T1139
1854Q1187 1854 1215 1831T1244 1759Q1244 1694 1209 1657T1115 1620Q1068 1620 1037 1643T1006 1718Z" />
<glyph unicode="&#xd7;" glyph-name="multiply" horiz-adv-x="1128" d="M457 723L147 1034L272 1159L584 850L897 1159L1024 1036L709 723L1020 410L897 287L584 596L272 289L150 412L457 723Z" />
<glyph unicode="&#xd8;" glyph-name="Oslash" horiz-adv-x="1485" d="M1421 922Q1421 643 1326 425T1065 94T678 -20Q485 -20 360 63L242 -86L109 18L238 178Q135 316 135 543Q135 810 233 1030T503 1368T891 1485Q1080 1485 1208 1391L1327 1540L1460 1436L1327
1270Q1421 1140 1421 922ZM872 1282Q731 1282 619 1189T442 924T377 545Q377 457 401 381L1069 1217Q989 1282 872 1282ZM1180 920Q1180 1008 1161 1063L500 238Q575 182 694 182Q833 182 944 277T1118 542T1180 920Z" />
<glyph unicode="&#xd9;" glyph-name="Ugrave" horiz-adv-x="1399" d="M1419 1462L1217 506Q1161 239 1009 110T606 -20Q389 -20 271 86T152 391Q152 474 172 561L365 1462H602L410 557Q389 469 389 399Q389 297 448 241T629 184Q774 184 859 264T983 526L1182
1462H1419ZM996 1579H852Q787 1642 720 1730T619 1886V1907H864Q911 1753 996 1604V1579Z" />
<glyph unicode="&#xda;" glyph-name="Uacute" horiz-adv-x="1399" d="M1419 1462L1217 506Q1161 239 1009 110T606 -20Q389 -20 271 86T152 391Q152 474 172 561L365 1462H602L410 557Q389 469 389 399Q389 297 448 241T629 184Q774 184 859 264T983 526L1182
1462H1419ZM791 1604Q888 1712 1016 1907H1280V1888Q1226 1822 1122 1727T947 1579H791V1604Z" />
<glyph unicode="&#xdb;" glyph-name="Ucircumflex" horiz-adv-x="1399" d="M1419 1462L1217 506Q1161 239 1009 110T606 -20Q389 -20 271 86T152 391Q152 474 172 561L365 1462H602L410 557Q389 469 389 399Q389 297 448 241T629 184Q774 184 859 264T983 526L1182
1462H1419ZM1249 1579H1097Q1021 1642 936 1757Q805 1647 700 1579H536V1604Q674 1732 737 1799T827 1907H1075Q1113 1808 1249 1604V1579Z" />
<glyph unicode="&#xdc;" glyph-name="Udieresis" horiz-adv-x="1399" d="M1419 1462L1217 506Q1161 239 1009 110T606 -20Q389 -20 271 86T152 391Q152 474 172 561L365 1462H602L410 557Q389 469 389 399Q389 297 448 241T629 184Q774 184 859 264T983 526L1182
1462H1419ZM602 1718Q602 1778 637 1816T735 1854Q783 1854 811 1831T840 1759Q840 1694 805 1657T711 1620Q664 1620 633 1643T602 1718ZM985 1718Q985 1778 1020 1816T1118 1854Q1166 1854 1194 1831T1223 1759Q1223 1694 1188 1657T1094 1620Q1047 1620 1016
1643T985 1718Z" />
<glyph unicode="&#xdd;" glyph-name="Yacute" horiz-adv-x="1092" d="M582 793L1014 1462H1280L657 549L543 0H305L424 553L186 1462H428L582 793ZM610 1604Q707 1712 835 1907H1099V1888Q1045 1822 941 1727T766 1579H610V1604Z" />
<glyph unicode="&#xde;" glyph-name="Thorn" d="M1124 817Q1124 574 958 440T481 305H373L307 0H70L379 1462H616L565 1219H662Q889 1219 1006 1118T1124 817ZM414 506H510Q686 506 784 584T883 811Q883 920 824 969T643 1018H522L414 506Z" />
<glyph unicode="&#xdf;" glyph-name="germandbls" horiz-adv-x="1266" d="M-117 -492Q-186 -492 -258 -469V-276Q-197 -297 -145 -297Q-80 -297 -39 -254T25 -106L287 1128Q335 1359 460 1461T809 1563Q997 1563 1101 1483T1206 1268Q1206 1099 1027 969Q909 882
879 850T848 782Q848 738 922 681Q1029 597 1065 554T1120 462T1139 352Q1139 180 1023 80T709 -20Q527 -20 426 45V246Q552 160 678 160Q783 160 842 204T901 328Q901 376 878 413T766 520Q684 584 645 641T606 768Q606 843 650 907T786 1031Q884 1097 924 1143T965
1241Q965 1306 918 1342T786 1378Q576 1378 524 1139L260 -121Q218 -318 126 -405T-117 -492Z" />
<glyph unicode="&#xe0;" glyph-name="agrave" horiz-adv-x="1186" d="M399 -20Q258 -20 176 81T94 367Q94 569 163 745T355 1023T623 1126Q720 1126 790 1081T899 948H909L971 1106H1151L915 0H733L754 176H748Q590 -20 399 -20ZM485 170Q567 170 646 247T776
455T827 739Q827 827 780 880T657 934Q572 934 497 857T377 648T332 373Q332 271 372 221T485 170ZM1103 1241H959Q894 1304 827 1392T726 1548V1569H971Q1018 1415 1103 1266V1241Z" />
<glyph unicode="&#xe1;" glyph-name="aacute" horiz-adv-x="1186" d="M399 -20Q258 -20 176 81T94 367Q94 569 163 745T355 1023T623 1126Q720 1126 790 1081T899 948H909L971 1106H1151L915 0H733L754 176H748Q590 -20 399 -20ZM485 170Q567 170 646 247T776
455T827 739Q827 827 780 880T657 934Q572 934 497 857T377 648T332 373Q332 271 372 221T485 170ZM598 1266Q695 1374 823 1569H1087V1550Q1033 1484 929 1389T754 1241H598V1266Z" />
<glyph unicode="&#xe2;" glyph-name="acircumflex" horiz-adv-x="1186" d="M399 -20Q258 -20 176 81T94 367Q94 569 163 745T355 1023T623 1126Q720 1126 790 1081T899 948H909L971 1106H1151L915 0H733L754 176H748Q590 -20 399 -20ZM485 170Q567 170 646 247T776
455T827 739Q827 827 780 880T657 934Q572 934 497 857T377 648T332 373Q332 271 372 221T485 170ZM1320 1241H1168Q1092 1304 1007 1419Q876 1309 771 1241H607V1266Q745 1394 808 1461T898 1569H1146Q1184 1470 1320 1266V1241Z" />
<glyph unicode="&#xe3;" glyph-name="atilde" horiz-adv-x="1186" d="M399 -20Q258 -20 176 81T94 367Q94 569 163 745T355 1023T623 1126Q720 1126 790 1081T899 948H909L971 1106H1151L915 0H733L754 176H748Q590 -20 399 -20ZM485 170Q567 170 646 247T776
455T827 739Q827 827 780 880T657 934Q572 934 497 857T377 648T332 373Q332 271 372 221T485 170ZM870 1241Q825 1241 788 1258T716 1295T651 1333T587 1350Q549 1350 524 1323T481 1239H344Q401 1524 600 1524Q646 1524 685 1507T757 1469T821 1431T880 1413Q920
1413 945 1439T993 1526H1130Q1064 1241 870 1241Z" />
<glyph unicode="&#xe4;" glyph-name="adieresis" horiz-adv-x="1186" d="M399 -20Q258 -20 176 81T94 367Q94 569 163 745T355 1023T623 1126Q720 1126 790 1081T899 948H909L971 1106H1151L915 0H733L754 176H748Q590 -20 399 -20ZM485 170Q567 170 646 247T776
455T827 739Q827 827 780 880T657 934Q572 934 497 857T377 648T332 373Q332 271 372 221T485 170ZM681 1380Q681 1440 716 1478T814 1516Q862 1516 890 1493T919 1421Q919 1356 884 1319T790 1282Q743 1282 712 1305T681 1380ZM1064 1380Q1064 1440 1099 1478T1197
1516Q1245 1516 1273 1493T1302 1421Q1302 1356 1267 1319T1173 1282Q1126 1282 1095 1305T1064 1380Z" />
<glyph unicode="&#xe5;" glyph-name="aring" horiz-adv-x="1186" d="M399 -20Q258 -20 176 81T94 367Q94 569 163 745T355 1023T623 1126Q720 1126 790 1081T899 948H909L971 1106H1151L915 0H733L754 176H748Q590 -20 399 -20ZM485 170Q567 170 646 247T776 455T827
739Q827 827 780 880T657 934Q572 934 497 857T377 648T332 373Q332 271 372 221T485 170ZM1244 1466Q1244 1362 1178 1301T1006 1239Q900 1239 837 1300T773 1464Q773 1567 838 1628T1006 1690Q1110 1690 1177 1630T1244 1466ZM1113 1464Q1113 1514 1083 1542T1006
1571Q961 1571 932 1543T902 1464Q902 1415 928 1388T1006 1360Q1053 1360 1083 1387T1113 1464Z" />
<glyph unicode="&#xe6;" glyph-name="ae" horiz-adv-x="1726" d="M1186 -20Q964 -20 881 117L858 0H707L727 176H719Q634 70 554 25T379 -20Q245 -20 170 83T94 367Q94 568 163 745T351 1024T612 1126Q700 1126 764 1083T872 948H881L944 1106H1092L1067 989Q1118
1052 1198 1089T1378 1126Q1518 1126 1598 1050T1679 848Q1679 666 1513 564T1038 461H993L989 401Q989 284 1049 224T1225 164Q1350 164 1530 248V59Q1355 -20 1186 -20ZM465 170Q550 170 627 250T753 466T801 733Q801 824 763 879T649 934Q564 934 490 854T374
643T332 373Q332 268 369 219T465 170ZM1333 946Q1230 946 1145 860T1022 633H1053Q1240 633 1346 686T1452 836Q1452 894 1418 920T1333 946Z" />
<glyph unicode="&#xe7;" glyph-name="ccedilla" horiz-adv-x="954" d="M506 -20Q310 -20 202 86T94 389Q94 596 167 765T374 1030T676 1126Q840 1126 973 1065L903 881Q781 934 682 934Q532 934 432 781T332 401Q332 290 388 230T543 170Q617 170 681 192T811
246V51Q671 -20 506 -20ZM621 -264Q621 -370 539 -431T315 -492Q251 -492 197 -477V-342Q244 -356 293 -356Q430 -356 430 -260Q430 -220 395 -199T291 -168L389 0H535L485 -96Q557 -121 589 -163T621 -264Z" />
<glyph unicode="&#xe8;" glyph-name="egrave" horiz-adv-x="1075" d="M664 946Q568 946 484 860T362 633H391Q579 633 685 686T791 838Q791 889 759 917T664 946ZM512 -20Q315 -20 205 91T94 401Q94 599 171 769T381 1033T678 1126Q839 1126 928 1054T1018 848Q1018
666 852 564T377 461H334L332 430V401Q332 290 388 227T557 164Q629 164 700 183T868 248V61Q772 17 692 -1T512 -20ZM1069 1241H925Q860 1304 793 1392T692 1548V1569H937Q984 1415 1069 1266V1241Z" />
<glyph unicode="&#xe9;" glyph-name="eacute" horiz-adv-x="1075" d="M664 946Q568 946 484 860T362 633H391Q579 633 685 686T791 838Q791 889 759 917T664 946ZM512 -20Q315 -20 205 91T94 401Q94 599 171 769T381 1033T678 1126Q839 1126 928 1054T1018 848Q1018
666 852 564T377 461H334L332 430V401Q332 290 388 227T557 164Q629 164 700 183T868 248V61Q772 17 692 -1T512 -20ZM557 1266Q654 1374 782 1569H1046V1550Q992 1484 888 1389T713 1241H557V1266Z" />
<glyph unicode="&#xea;" glyph-name="ecircumflex" horiz-adv-x="1075" d="M664 946Q568 946 484 860T362 633H391Q579 633 685 686T791 838Q791 889 759 917T664 946ZM512 -20Q315 -20 205 91T94 401Q94 599 171 769T381 1033T678 1126Q839 1126 928 1054T1018
848Q1018 666 852 564T377 461H334L332 430V401Q332 290 388 227T557 164Q629 164 700 183T868 248V61Q772 17 692 -1T512 -20ZM1289 1241H1137Q1061 1304 976 1419Q845 1309 740 1241H576V1266Q714 1394 777 1461T867 1569H1115Q1153 1470 1289 1266V1241Z" />
<glyph unicode="&#xeb;" glyph-name="edieresis" horiz-adv-x="1075" d="M664 946Q568 946 484 860T362 633H391Q579 633 685 686T791 838Q791 889 759 917T664 946ZM512 -20Q315 -20 205 91T94 401Q94 599 171 769T381 1033T678 1126Q839 1126 928 1054T1018
848Q1018 666 852 564T377 461H334L332 430V401Q332 290 388 227T557 164Q629 164 700 183T868 248V61Q772 17 692 -1T512 -20ZM644 1380Q644 1440 679 1478T777 1516Q825 1516 853 1493T882 1421Q882 1356 847 1319T753 1282Q706 1282 675 1305T644 1380ZM1027
1380Q1027 1440 1062 1478T1160 1516Q1208 1516 1236 1493T1265 1421Q1265 1356 1230 1319T1136 1282Q1089 1282 1058 1305T1027 1380Z" />
<glyph unicode="&#xec;" glyph-name="igrave" horiz-adv-x="563" d="M283 0H47L283 1106H518L283 0ZM536 1241H392Q327 1304 260 1392T159 1548V1569H404Q451 1415 536 1266V1241Z" />
<glyph unicode="&#xed;" glyph-name="iacute" horiz-adv-x="563" d="M283 0H47L283 1106H518L283 0ZM308 1266Q405 1374 533 1569H797V1550Q743 1484 639 1389T464 1241H308V1266Z" />
<glyph unicode="&#xee;" glyph-name="icircumflex" horiz-adv-x="563" d="M283 0H47L283 1106H518L283 0ZM777 1241H625Q549 1304 464 1419Q333 1309 228 1241H64V1266Q202 1394 265 1461T355 1569H603Q641 1470 777 1266V1241Z" />
<glyph unicode="&#xef;" glyph-name="idieresis" horiz-adv-x="563" d="M283 0H47L283 1106H518L283 0ZM142 1380Q142 1440 177 1478T275 1516Q323 1516 351 1493T380 1421Q380 1356 345 1319T251 1282Q204 1282 173 1305T142 1380ZM525 1380Q525 1440 560 1478T658
1516Q706 1516 734 1493T763 1421Q763 1356 728 1319T634 1282Q587 1282 556 1305T525 1380Z" />
<glyph unicode="&#xf0;" glyph-name="eth" d="M647 1325Q603 1366 512 1421L618 1573Q747 1501 827 1427L1077 1565L1147 1438L930 1317Q1085 1112 1085 805Q1085 550 1012 361T808 76T496 -20Q299 -20 190 87T80 389Q80 551 145 688T330 903T596 981Q692 981
764 943T877 834H883Q873 1077 750 1217L500 1075L428 1204L647 1325ZM508 162Q600 162 669 221T778 380T817 586Q817 683 765 741T621 799Q530 799 461 743T354 590T317 377Q317 273 366 218T508 162Z" />
<glyph unicode="&#xf1;" glyph-name="ntilde" horiz-adv-x="1208" d="M702 0L844 672Q862 762 862 803Q862 934 733 934Q661 934 591 877T465 713T381 469L283 0H47L283 1106H467L446 901H455Q538 1019 626 1072T817 1126Q951 1126 1024 1050T1098 834Q1098 765
1075 653L938 0H702ZM889 1241Q844 1241 807 1258T735 1295T670 1333T606 1350Q568 1350 543 1323T500 1239H363Q420 1524 619 1524Q665 1524 704 1507T776 1469T840 1431T899 1413Q939 1413 964 1439T1012 1526H1149Q1083 1241 889 1241Z" />
<glyph unicode="&#xf2;" glyph-name="ograve" d="M842 702Q842 809 793 869T653 930Q560 930 487 859T373 665T332 403Q332 292 381 233T528 174Q618 174 690 242T802 432T842 702ZM1079 692Q1079 490 1006 325T806 71T512 -18Q320 -18 207 96T94 408Q94 607 165
773T366 1031T664 1124Q859 1124 969 1008T1079 692ZM1077 1241H933Q868 1304 801 1392T700 1548V1569H945Q992 1415 1077 1266V1241Z" />
<glyph unicode="&#xf3;" glyph-name="oacute" d="M842 702Q842 809 793 869T653 930Q560 930 487 859T373 665T332 403Q332 292 381 233T528 174Q618 174 690 242T802 432T842 702ZM1079 692Q1079 490 1006 325T806 71T512 -18Q320 -18 207 96T94 408Q94 607 165
773T366 1031T664 1124Q859 1124 969 1008T1079 692ZM580 1266Q677 1374 805 1569H1069V1550Q1015 1484 911 1389T736 1241H580V1266Z" />
<glyph unicode="&#xf4;" glyph-name="ocircumflex" d="M842 702Q842 809 793 869T653 930Q560 930 487 859T373 665T332 403Q332 292 381 233T528 174Q618 174 690 242T802 432T842 702ZM1079 692Q1079 490 1006 325T806 71T512 -18Q320 -18 207 96T94 408Q94
607 165 773T366 1031T664 1124Q859 1124 969 1008T1079 692ZM1310 1241H1158Q1082 1304 997 1419Q866 1309 761 1241H597V1266Q735 1394 798 1461T888 1569H1136Q1174 1470 1310 1266V1241Z" />
<glyph unicode="&#xf5;" glyph-name="otilde" d="M842 702Q842 809 793 869T653 930Q560 930 487 859T373 665T332 403Q332 292 381 233T528 174Q618 174 690 242T802 432T842 702ZM1079 692Q1079 490 1006 325T806 71T512 -18Q320 -18 207 96T94 408Q94 607 165
773T366 1031T664 1124Q859 1124 969 1008T1079 692ZM854 1241Q809 1241 772 1258T700 1295T635 1333T571 1350Q533 1350 508 1323T465 1239H328Q385 1524 584 1524Q630 1524 669 1507T741 1469T805 1431T864 1413Q904 1413 929 1439T977 1526H1114Q1048 1241 854
1241Z" />
<glyph unicode="&#xf6;" glyph-name="odieresis" d="M842 702Q842 809 793 869T653 930Q560 930 487 859T373 665T332 403Q332 292 381 233T528 174Q618 174 690 242T802 432T842 702ZM1079 692Q1079 490 1006 325T806 71T512 -18Q320 -18 207 96T94 408Q94 607
165 773T366 1031T664 1124Q859 1124 969 1008T1079 692ZM665 1380Q665 1440 700 1478T798 1516Q846 1516 874 1493T903 1421Q903 1356 868 1319T774 1282Q727 1282 696 1305T665 1380ZM1048 1380Q1048 1440 1083 1478T1181 1516Q1229 1516 1257 1493T1286 1421Q1286
1356 1251 1319T1157 1282Q1110 1282 1079 1305T1048 1380Z" />
<glyph unicode="&#xf7;" glyph-name="divide" horiz-adv-x="1128" d="M117 631V811H1053V631H117ZM459 373Q459 437 490 472T584 508Q646 508 678 472T711 373Q711 309 677 273T584 236Q526 236 493 271T459 373ZM459 1071Q459 1135 490 1170T584 1206Q646 1206
678 1170T711 1071Q711 1007 677 971T584 934Q526 934 493 969T459 1071Z" />
<glyph unicode="&#xf8;" glyph-name="oslash" d="M1077 700Q1077 492 1003 324T803 69T514 -18Q377 -18 279 41L174 -90L51 6L166 147Q96 251 96 408Q96 608 166 773T366 1031T664 1124Q800 1124 903 1063L989 1171L1114 1075L1014 958Q1077 858 1077 700ZM653
936Q512 936 418 791T324 426Q324 387 332 352L774 901Q729 936 653 936ZM528 168Q617 168 691 234T807 418T850 676Q850 721 844 743L408 201Q449 168 528 168Z" />
<glyph unicode="&#xf9;" glyph-name="ugrave" horiz-adv-x="1208" d="M506 1106L377 496Q346 355 346 303Q346 170 473 170Q545 170 616 227T742 389T827 637L926 1106H1159L926 0H741L762 205H754Q672 89 583 35T391 -20Q257 -20 184 56T111 274Q111 337 123
398T147 522L270 1106H506ZM1079 1241H935Q870 1304 803 1392T702 1548V1569H947Q994 1415 1079 1266V1241Z" />
<glyph unicode="&#xfa;" glyph-name="uacute" horiz-adv-x="1208" d="M506 1106L377 496Q346 355 346 303Q346 170 473 170Q545 170 616 227T742 389T827 637L926 1106H1159L926 0H741L762 205H754Q672 89 583 35T391 -20Q257 -20 184 56T111 274Q111 337 123
398T147 522L270 1106H506ZM623 1266Q720 1374 848 1569H1112V1550Q1058 1484 954 1389T779 1241H623V1266Z" />
<glyph unicode="&#xfb;" glyph-name="ucircumflex" horiz-adv-x="1208" d="M506 1106L377 496Q346 355 346 303Q346 170 473 170Q545 170 616 227T742 389T827 637L926 1106H1159L926 0H741L762 205H754Q672 89 583 35T391 -20Q257 -20 184 56T111 274Q111 337
123 398T147 522L270 1106H506ZM1083 1241H931Q855 1304 770 1419Q639 1309 534 1241H370V1266Q508 1394 571 1461T661 1569H909Q947 1470 1083 1266V1241Z" />
<glyph unicode="&#xfc;" glyph-name="udieresis" horiz-adv-x="1208" d="M506 1106L377 496Q346 355 346 303Q346 170 473 170Q545 170 616 227T742 389T827 637L926 1106H1159L926 0H741L762 205H754Q672 89 583 35T391 -20Q257 -20 184 56T111 274Q111 337 123
398T147 522L270 1106H506ZM432 1380Q432 1440 467 1478T565 1516Q613 1516 641 1493T670 1421Q670 1356 635 1319T541 1282Q494 1282 463 1305T432 1380ZM815 1380Q815 1440 850 1478T948 1516Q996 1516 1024 1493T1053 1421Q1053 1356 1018 1319T924 1282Q877
1282 846 1305T815 1380Z" />
<glyph unicode="&#xfd;" glyph-name="yacute" horiz-adv-x="1004" d="M100 1106H332L395 575Q404 513 411 401T418 219H424Q510 434 559 532L852 1106H1106L418 -174Q328 -339 222 -415T-27 -492Q-103 -492 -170 -473V-285Q-95 -301 -45 -301Q29 -301 89 -258T213
-102L264 -10L100 1106ZM757 1266Q854 1374 982 1569H1246V1550Q1192 1484 1088 1389T913 1241H757V1266Z" />
<glyph unicode="&#xfe;" glyph-name="thorn" horiz-adv-x="1200" d="M586 -20Q492 -20 421 25T307 156H299Q292 65 274 -29L178 -492H-55L377 1556H612Q564 1333 539 1217T463 926H471Q626 1126 799 1126Q943 1126 1023 1024T1104 737Q1104 533 1036 356T852 79T586
-20ZM707 934Q623 934 544 853T417 640T369 373Q369 275 415 223T547 170Q633 170 706 247T823 456T866 733Q866 833 825 883T707 934Z" />
<glyph unicode="&#xff;" glyph-name="ydieresis" horiz-adv-x="1004" d="M100 1106H332L395 575Q404 513 411 401T418 219H424Q510 434 559 532L852 1106H1106L418 -174Q328 -339 222 -415T-27 -492Q-103 -492 -170 -473V-285Q-95 -301 -45 -301Q29 -301 89 -258T213
-102L264 -10L100 1106ZM579 1380Q579 1440 614 1478T712 1516Q760 1516 788 1493T817 1421Q817 1356 782 1319T688 1282Q641 1282 610 1305T579 1380ZM962 1380Q962 1440 997 1478T1095 1516Q1143 1516 1171 1493T1200 1421Q1200 1356 1165 1319T1071 1282Q1024
1282 993 1305T962 1380Z" />
<glyph unicode="&#x2013;" glyph-name="endash" horiz-adv-x="983" d="M47 453L90 647H928L885 453H47Z" />
<glyph unicode="&#x2014;" glyph-name="emdash" horiz-adv-x="1966" d="M47 453L90 647H1911L1868 453H47Z" />
<glyph unicode="&#x2018;" glyph-name="quoteleft" horiz-adv-x="393" d="M125 961L119 983Q153 1059 225 1192T385 1462H561Q439 1176 362 961H125Z" />
<glyph unicode="&#x2019;" glyph-name="quoteright" horiz-adv-x="393" d="M551 1462L559 1440Q522 1357 449 1223T293 961H115Q158 1056 221 1216T313 1462H551Z" />
<glyph unicode="&#x201a;" glyph-name="quotesinglbase" horiz-adv-x="530" d="M334 238L342 215Q234 -18 76 -264H-102Q3 -26 98 238H334Z" />
<glyph unicode="&#x201c;" glyph-name="quotedblleft" horiz-adv-x="803" d="M535 961L526 983Q610 1173 793 1462H969Q847 1176 770 961H535ZM125 961L119 983Q153 1059 225 1192T385 1462H561Q439 1176 362 961H125Z" />
<glyph unicode="&#x201d;" glyph-name="quotedblright" horiz-adv-x="803" d="M551 1462L559 1440Q522 1357 449 1223T293 961H115Q158 1056 221 1216T313 1462H551ZM958 1462L967 1440Q869 1220 698 961H522Q573 1075 631 1222T721 1462H958Z" />
<glyph unicode="&#x201e;" glyph-name="quotedblbase" horiz-adv-x="938" d="M334 238L342 215Q234 -18 76 -264H-102Q3 -26 98 238H334ZM741 238L750 215Q658 9 483 -264H307Q427 17 506 238H741Z" />
<glyph unicode="&#x2022;" glyph-name="bullet" horiz-adv-x="756" d="M152 684Q152 840 235 936T459 1032Q559 1032 617 978T676 809Q676 653 594 557T367 461Q265 461 209 518T152 684Z" />
<glyph unicode="&#x2039;" glyph-name="guilsinglleft" horiz-adv-x="621" d="M80 573L475 995L610 877L322 543L475 176L297 100L80 549V573Z" />
<glyph unicode="&#x203a;" glyph-name="guilsinglright" horiz-adv-x="621" d="M541 514L145 92L10 211L299 545L145 911L324 987L541 539V514Z" />
</font>
</defs>
</svg>
